#TITLE:Release of the Far West Ocean;
#SUBTITLE:;
#ARTIST:Sound Team JDK;
#TITLETRANSLIT:;
#SUBTITLETRANSLIT:;
#ARTISTTRANSLIT:;
#CREDIT:;
#BANNER:rotfwo.png;
#BACKGROUND:rotfwo-bg.png;
#LYRICSPATH:;
#CDTITLE:!HSTTitle.png;
#MUSIC:Release of the Far West Ocean.mp3;
#OFFSET:0.340;
#SAMPLESTART:32.677;
#SAMPLELENGTH:11.960;
#SELECTABLE:YES;
#BPMS:0.000=130.380,108.000=65.220,116.000=130.440;
#STOPS:;
#BGCHANGES:;
// cache tags:
#FIRSTBEAT:4.000;
#LASTBEAT:204.000;
#SONGFILENAME:Songs/Music V.I.P ^_^/Release of the Far West Ocean- HST/rotfwo.sm;
#HASMUSIC:1;
#HASBANNER:1;
#MUSICLENGTH:102.765;
// end cache tags

//---------------dance-single - ----------------
#NOTES:
     dance-single:
     :
     Challenge:
     13:
     1.000,1.000,1.000,0.136,1.000,768.000,145.000,14.000,0.000,1.000:
0000
0000
0000
0000
,
1100
0001
0100
0010
0100
0001
0100
0010
1000
0100
0010
0100
1000
0100
0010
0100
,
1001
0010
0001
0010
0100
0010
0001
0010
0100
1000
0100
0010
0100
1000
0100
0010
,
1001
0100
1000
0100
0010
0001
0100
0010
1000
0100
1000
0010
0100
0001
0010
0100
,
1001
0010
0001
0100
0010
0100
0001
0010
1100
0100
0100
0100
0011
0001
0001
0001
,
1001
0100
1000
0010
0100
0010
1000
0100
0010
0001
0100
0010
0100
0001
0010
0100
,
1000
0010
0100
0010
1000
0100
0010
0001
0100
0010
0100
0001
0010
0100
1000
0100
,
0010
0100
1000
0010
0100
0010
1000
0100
1000
0001
0100
0001
0010
0100
1000
0010
,
1000
0100
1000
0001
1000
0100
1000
0010
1000
0100
0010
0100
0010
0001
0010
0001
,
0001
0001
0001
0011
0000
0100
0100
0100
0100
0010
0001
0010
0100
1000
0010
0100
,
1001
0100
1000
0010
0100
0010
1000
0100
0010
0001
0100
0010
0101
0001
1010
0100
,
1100
0010
0100
1010
0100
0010
1001
0100
1000
0010
0100
0010
0101
0010
1100
1000
,
1010
0100
0001
0110
0001
1000
0011
1000
0110
0001
0100
1001
0010
0100
1000
0001
,
1100
0010
0001
0100
0010
1000
0100
1000
0010
0100
0010
1000
0100
0010
0001
0100
,
1001
0100
0010
0001
1000
0010
0100
0010
1000
0100
0010
0001
1010
0100
1010
0100
,
0011
1000
0010
0101
0010
0100
1001
0010
0100
1000
0010
0100
1010
0100
0011
0010
,
0110
0001
1000
0101
0010
0100
0011
1000
0110
0001
0010
1100
0010
0001
0110
1000
,
0011
0100
1000
0100
0010
0001
0010
0100
1000
0100
1000
0010
0100
0010
1000
0100
,
1100
0010
0001
0100
0010
1000
0100
0010
0001
0100
0010
0100
0011
1000
0101
1000
,
0011
1000
0001
0110
1000
0010
1100
0001
0100
0010
1000
0100
0011
0010
1100
0010
,
0101
0010
1000
0110
0001
1000
0011
1000
0110
1000
0100
0011
0100
0001
0110
0001
,
1100
0010
0001
0100
0010
1000
0100
0010
0001
1000
0010
0100
0010
1000
0100
0010
,
1001
0100
0010
1000
0100
0010
0001
0100
0001
1000
0100
0010
1001
0100
0011
0100
,
1010
0100
0001
0110
1000
0100
0011
0100
1000
0010
0100
0001
1010
0100
0011
1000
,
0101
0010
1000
0110
0001
0100
1010
0001
0110
1000
0010
0101
1000
0001
0110
1000
,
0101
0010
1000
0010
0100
0010
1000
0100
0010
0001
0100
0001
0010
0001
0100
0010
,
1000
0000
0100
0000
1000
0000
0010
0000
0100
0000
0010
0000
0001
0000
0010
0000
1000
0100
0010
0001
0000
0000
0000
0000
1000
0100
0010
0001
0010
0000
0100
0000
,
0020
0000
0000
0130
0000
0000
0010
0000
0020
0000
0000
0031
0000
0000
0010
0000
0010
0100
2000
0000
0000
0000
3000
0000
0000
0000
0000
0000
1100
0000
0000
0000
,
0001
0000
0000
0100
0000
0000
0010
0000
0100
0000
0000
0010
0000
0000
1000
0000
0001
0000
1000
0001
0000
1000
0000
0001
0000
0000
0000
0000
1001
0000
0000
0000
,
0011
0100
1000
0110
0001
1000
0110
0001
1100
0010
1000
0110
0001
0100
0011
1000
,
0011
0110
1100
0010
0001
0100
0010
1000
0100
0010
0001
0100
1001
0010
0100
1000
,
0011
0100
0001
0110
1000
0010
1100
0001
0110
1000
0100
0011
0100
0001
0110
0001
,
2200
0000
3300
0022
0000
0033
2002
3003
2002
0000
3003
0000
0002
0000
0000
0000
,
1013
0100
0010
0101
0010
0100
0011
1000
0110
0001
0010
1100
0010
1000
0101
1000
,
0110
0001
0010
1100
0010
0001
0110
1000
0011
0100
0001
0110
1000
0010
1100
0010
,
0101
1000
0010
0101
1000
0001
0110
0001
1010
0100
0010
0101
1000
0100
0011
1000
,
0110
0001
0100
0010
1000
0100
1000
0010
0101
0010
1000
0100
0010
0001
0100
0010
,
1001
0100
0010
0101
0010
1000
0011
1000
0110
0001
0010
1100
0010
1000
0101
1000
,
0110
0001
0010
1100
0010
0100
0011
0100
1010
0100
0001
0110
1000
0001
1100
0010
,
0101
1000
0010
0101
0010
1000
0110
0001
1010
0100
0010
0101
1000
0100
0011
1000
,
0110
0001
0100
0010
1000
0100
0010
0100
1010
0100
0001
0100
0010
0100
1000
0100
,
1010
0100
1001
0100
0010
1000
0100
0010
0001
0100
0010
0100
0010
1000
0100
0010
,
0001
1000
0010
0100
0001
0010
0100
1000
0110
0001
0100
0010
1100
0001
0100
0010
,
1100
0010
0100
0001
0010
0100
1000
0010
0100
0001
0010
0100
1000
0010
0100
0001
,
0010
0100
0010
0001
0100
0010
1000
0100
0010
0001
0100
0001
1010
0100
0010
0100
,
1001
0100
1000
0010
0100
0010
1000
0100
0010
0001
0100
0001
0010
0100
1000
0010
,
0100
0010
1000
0100
0010
0001
0100
0010
1100
0010
0100
0001
0110
0001
0100
0010
,
1100
0010
0001
0100
0010
1000
0100
0010
0001
0100
0010
0100
0010
1000
0101
0010
,
1000
0100
0010
0001
0100
0010
1000
0100
0010
0001
1000
0010
0100
0010
1000
0100
,
0001
0001
0001
1001
0000
0010
0001
0001
0001
0010
0001
0010
0100
1000
0101
0000
,
1100
0000
0100
0110
0000
0010
0001
2002
0000
0000
0000
0000
0000
0000
0000
0000
,
3003
0000
0000
0000
;
